Apollo.11.2019.1080p.BluRay.REMUX.AVC.DTS-HD.MA.5.1-FGT

  • Category Movies
  • Type HD
  • Language English
  • Total size 15.7 GB
  • Uploaded By Dakshvv
  • Downloads 316
  • Last checked 6 days ago
  • Date uploaded 1 week ago
  • Seeders 16
  • Leechers 16

Apollo 11

DocumentaryHistory

A look at the Apollo 11 mission to land on the moon led by commander Neil Armstrong and pilot Buzz Aldrin.

Infohash : 17AF474425676D0D96544B90189665E8EDFC92D2



Screens





Code:


Video
ID : 1
Format : AVC
Format/Info : Advanced Video Codec
Format profile : [email protected]
Format settings : CABAC / 4 Ref Frames
Format settings, CABAC : Yes
Format settings, ReFrames : 4 frames
Codec ID : V_MPEG4/ISO/AVC
Duration : 1 h 33 min
Bit rate mode : Variable
Bit rate : 20.6 Mb/s
Maximum bit rate : 36.0 Mb/s
Width : 1 920 pixels
Height : 1 080 pixels
Display aspect ratio : 16:9
Frame rate mode : Constant
Frame rate : 23.976 (24000/1001) FPS
Color space : YUV
Chroma subsampling : 4:2:0
Bit depth : 8 bits
Scan type : Progressive
Bits/(Pixel*Frame) : 0.414
Stream size : 13.4 GiB (85%)
Title : Apollo.11.2019.1080p.BluRay.REMUX.AVC.DTS-HD.MA.5.1-FGT
Language : English
Default : No
Forced : No

Audio
ID : 2
Format : DTS XLL
Format/Info : Digital Theater Systems
Commercial name : DTS-HD Master Audio
Codec ID : A_DTS
Duration : 1 h 33 min
Bit rate mode : Variable
Bit rate : 3 509 kb/s
Channel(s) : 6 channels
Channel layout : C L R Ls Rs LFE
Sampling rate : 48.0 kHz
Frame rate : 93.750 FPS (512 SPF)
Bit depth : 24 bits
Compression mode : Lossless
Stream size : 2.28 GiB (15%)
Title : Apollo.11.2019.1080p.BluRay.REMUX.AVC.DTS-HD.MA.5.1-FGT
Language : English
Default : Yes
Forced : No

Text
ID : 3
Format : PGS
Muxing mode : zlib
Codec ID : S_HDMV/PGS
Codec ID/Info : Picture based subtitle format used on BDs/HD-DVDs
Duration : 1 h 29 min
Bit rate : 38.9 kb/s
Count of elements : 3183
Stream size : 25.0 MiB (0%)
Title : English-PGS
Language : English
Default : Yes
Forced : No

Menu
00:00:00.000 : en:Chapter 01
00:11:24.058 : en:Chapter 02
00:24:39.561 : en:Chapter 03
00:37:58.276 : en:Chapter 04
00:45:36.650 : en:Chapter 05
00:53:25.785 : en:Chapter 06
01:18:24.408 : en:Chapter 07
01:29:26.444 : en:Chapter 08


Files:

Apollo.11.2019.1080p.BluRay.REMUX.AVC.DTS-HD.MA.5.1-FGT
  • Apollo.11.2019.1080p.BluRay.REMUX.AVC.DTS-HD.MA.5.1-FGT.mkv (15.7 GB)
  • RARBG.txt (0.0 KB)

There are currently no comments. Feel free to leave one :)

Code:

  • http://tracker.trackerfix.com:80/announce
  • udp://9.rarbg.me:2760/announce
  • udp://9.rarbg.to:2720/announce